Login or Register

NFO File

For Chesapeake.Shores.S02E06.1080p.NF.WEB-DL.DD5.1.x264-NTb

General
Unique ID                                : 198374688899877364012280435481354359557 (0x953D934A8930DB8E930DC0D549BAD305)
Complete name                            : Chesapeake.Shores.S02E06.Grand.Openings.1080p.NF.WEB-DL.DD5.1.x264-NTb.mkv
Format                                   : Matroska
Format version                           : Version 4 / Version 2
File size                                : 2.12 GiB
Duration                                 : 43mn 26s
Overall bit rate mode                    : Variable
Overall bit rate                         : 6 986 Kbps
Encoded date                             : UTC 2017-09-12 12:48:30 / UTC 2017-09-07 21:23:06
Writing application                      : mkvmerge v11.0.0 ('Alive') 64bit
Writing library                          : libebml v1.3.4 + libmatroska v1.4.5 / Lavf58.0.0

Video
ID                                       : 1
Format                                   : AVC
Format/Info                              : Advanced Video Codec
Format profile                           : [email protected]
Format settings, CABAC                   : Yes
Format settings, ReFrames                : 3 frames
Codec ID                                 : V_MPEG4/ISO/AVC
Duration                                 : 43mn 26s
Bit rate mode                            : Variable
Bit rate                                 : 6 463 Kbps
Nominal bit rate                         : 6 810 Kbps
Maximum bit rate                         : 10.2 Mbps
Width                                    : 1 920 pixels
Height                                   : 1 080 pixels
Display aspect ratio                     : 16:9
Frame rate mode                          : Constant
Frame rate                               : 23.976 (24000/1001) fps
Color space                              : YUV
Chroma subsampling                       : 4:2:0
Bit depth                                : 8 bits
Scan type                                : Progressive
Bits/(Pixel*Frame)                       : 0.130
Stream size                              : 1.96 GiB (93%)
Writing library                          : x264 core 148
Encoding settings                        : cabac=1 / ref=3 / deblock=1:0:0 / analyse=0x1:0x111 / me=umh / subme=10 / psy=1 / psy_rd=1.00:0.00 / mixed_ref=1 / me_range=24 / chroma_me=1 / trellis=2 / 8x8dct=0 / cqm=0 / deadzone=21,11 / fast_pskip=1 / chroma_qp_offset=-2 / threads=8 / lookahead_threads=1 / sliced_threads=0 / nr=0 / decimate=1 / interlaced=0 / bluray_compat=0 / stitchable=1 / constrained_intra=0 / bframes=2 / b_pyramid=0 / b_adapt=2 / b_bias=0 / direct=3 / weightb=1 / open_gop=0 / weightp=2 / keyint=48 / keyint_min=25 / scenecut=0 / intra_refresh=0 / rc_lookahead=48 / rc=2pass / mbtree=1 / bitrate=6810 / ratetol=1.0 / qcomp=0.50 / qpmin=6 / qpmax=51 / qpstep=4 / cplxblur=20.0 / qblur=0.5 / vbv_maxrate=10215 / vbv_bufsize=13620 / nal_hrd=vbr / filler=0 / ip_ratio=1.40 / aq=1:1.00
Default                                  : Yes
Forced                                   : No
Statistics Tags Issue                    : mkvmerge v11.0.0 ('Alive') 64bit 2017-09-12 12:48:30 / mkvmerge v11.0.0 ('Alive') 64bit 2017-09-12 12:48:30 / UTC 2017-09-07 21:23:06
FromStats_BitRate                        : 6600101
FromStats_Duration                       : 00:43:26.437000000
FromStats_FrameCount                     : 62492
FromStats_StreamSize                     : 2150343433

Audio
ID                                       : 2
Format                                   : AC-3
Format/Info                              : Audio Coding 3
Mode extension                           : CM (complete main)
Format settings, Endianness              : Big
Codec ID                                 : A_AC3
Duration                                 : 43mn 26s
Bit rate mode                            : Constant
Bit rate                                 : 384 Kbps
Channel(s)                               : 6 channels
Channel positions                        : Front: L C R, Side: L R, LFE
Sampling rate                            : 48.0 KHz
Frame rate                               : 31.250 fps (1536 spf)
Compression mode                         : Lossy
Stream size                              : 119 MiB (5%)
Language                                 : English
Default                                  : Yes
Forced                                   : No
Encoded date                             : UTC 2017-09-07 21:23:06
HANDLER_NAME                             : Audio Media Handler
Statistics Tags Issue                    : mkvmerge v11.0.0 ('Alive') 64bit 2017-09-12 12:48:30 / mkvmerge v11.0.0 ('Alive') 64bit 2017-09-12 12:48:30 / UTC 2017-09-07 21:23:06
FromStats_BitRate                        : 384000
FromStats_Duration                       : 00:43:26.624000000
FromStats_FrameCount                     : 81457
FromStats_StreamSize                     : 125117952

Text
ID                                       : 3
Format                                   : UTF-8
Codec ID                                 : S_TEXT/UTF8
Codec ID/Info                            : UTF-8 Plain Text
Title                                    : English
Language                                 : English
Default                                  : No
Forced                                   : No
Statistics Tags Issue                    : mkvmerge v11.0.0 ('Alive') 64bit 2017-09-12 12:48:30 / mkvmerge v11.0.0 ('Alive') 64bit 2017-09-12 12:48:30 / UTC 2017-09-07 21:23:06
FromStats_BitRate                        : 90
FromStats_Duration                       : 00:40:44.361000000
FromStats_FrameCount                     : 744
FromStats_StreamSize                     : 27605