Login or Register

NFO File

For 3.2017.NEW.HDTS.XviD-VAiN

[img]http://i.imgur.com/FJi0aRt.png[/img] 
:info:
[b]P R E S E N T S . . . .[/b] 
Despicable.Me 3.2017.NEW.HDTS.XviD-VAiN
 iMDB........: http://www.imdb.com/title/tt3469046/
T E C H N i C A L . i N F O . . .
Format                      : AVI
Format/Info                 : Audio Video Interleave
File size                   : 1.36 GiB
Duration                    : 1 h 21 min
Overall bit rate            : 2 375 kb/s

Video
ID                          : 0
Format                      : MPEG-4 Visual
Format profile              : Advanced [email protected]
Format settings, BVOP       : 1
Format settings, QPel       : No
Format settings, GMC        : No warppoints
Format settings, Matrix     : Default (H.263)
Codec ID                    : XVID
Codec ID/Hint               : XviD
Duration                    : 1 h 21 min
Bit rate                    : 2 170 kb/s
Width                       : 720 pixels
Height                      : 288 pixels
Display aspect ratio        : 2.500
Frame rate                  : 30.000 FPS
Color space                 : YUV
Chroma subsampling          : 4:2:0
Bit depth                   : 8 bits
Scan type                   : Progressive
Compression mode            : Lossy
Bits/(Pixel*Frame)          : 0.349
Stream size                 : 1.24 GiB (91%)
Writing library             : XviD 67

Audio
ID                          : 1
Format                      : MPEG Audio
Format version              : Version 1
Format profile              : Layer 3
Mode                        : Joint stereo
Mode extension              : MS Stereo
Codec ID                    : 55
Codec ID/Hint               : MP3
Duration                    : 1 h 21 min
Bit rate mode               : Constant
Bit rate                    : 192 kb/s
Channel(s)                  : 2 channels
Sampling rate               : 44.1 kHz
Compression mode            : Lossy
Stream size                 : 112 MiB (8%)
Alignment                   : Aligned on interleaves
Interleave, duration        : 26  ms (0.78 video frame)
Interleave, preload duratio : 182  ms

[img]http://i.imgur.com/lBY01Nf.png[/img]
:notes:    
SOURCE......: ViDEO... CPG[Your so VAiN....you probably think this poo shines about you!]
............: AUDiO...CPG [Your so VAiN....you probably think this poo shines about you!]
SAMPLE......: N0 POiNT....
ADDED NOTE..: killed it again LOL!!!! Cheers for the turd CPG. cropped out the site tags and blurred the others...
:screens:
 [img]http://i.imgur.com/6ddswIq.png[/img]
 [img]http://i.imgur.com/Udkuu21.png[/img]
 [img]http://i.imgur.com/1Bw5gis.png[/img]
 [img]http://i.imgur.com/EN5VtA6.png[/img]
 [img]http://i.imgur.com/C4APBn9.png[/img]
 [img]http://i.imgur.com/ObYEcAS.png[/img]



:greets:
to all the poo shine providers keem em' commin... 
[b]CPG ACAB[/b] [b]NARKO[/b] EVO DiRG 
Leave dat room for da polish