Login or Register

NFO File

For Man in Possession 1931 VHSrip

The Man in Possession 1931 VHSrip

Comedy | 4 July 1931 (USA)
http://www.imdb.com/title/tt0022117/

A charming bailiff's assistant poses as a young woman's butler until she can pay her debts.

Director: Sam Wood (uncredited)
Writers: H.M. Harwood (from the play by), Sarah Y. Mason (screen adaptation) | 2 more credits »
Stars: Robert Montgomery, Charlotte Greenwood, Irene Purcell 

Format                                   : AVI
Format/Info                              : Audio Video Interleave
File size                                : 695 MiB
Duration                                 : 1h 24mn
Overall bit rate                         : 1 147 Kbps

Video
ID                                       : 0
Format                                   : xvid
Codec ID                                 : xvid
Duration                                 : 1h 24mn
Bit rate                                 : 1 037 Kbps
Width                                    : 640 pixels
Height                                   : 478 pixels
Display aspect ratio                     : 4:3
Frame rate                               : 29.970 fps
Bits/(Pixel*Frame)                       : 0.113
Stream size                              : 628 MiB (90%)

Audio
ID                                       : 1
Format                                   : MPEG Audio
Format version                           : Version 1
Format profile                           : Layer 3
Codec ID                                 : 55
Codec ID/Hint                            : MP3
Duration                                 : 1h 0mn
Source duration                          : 1h 24mn
Bit rate mode                            : Constant
Bit rate                                 : 96.0 Kbps
Channel(s)                               : 1 channel
Sampling rate                            : 48.0 KHz
Compression mode                         : Lossy
Stream size                              : 58.2 MiB (8%)
Alignment                                : Aligned on interleaves
Interleave, duration                     : 24 ms (0.72 video frame)
Writing library                          : LAME3.98 (alpha)