Login or Register

NFO File

For Two.Loves.1961.TVrip.Xvid-RFM

Two.Loves.1961.TVrip.Xvid-RFM

Drama | 9 November 1961 (Mexico)
http://www.imdb.com/title/tt0055557/

Out on a Limb, not out on a Leash.

Director: Charles Walters
Writers: Ben Maddow (screenplay), Sylvia Ashton-Warner (novel)
Stars: Shirley MacLaine, Laurence Harvey, Jack Hawkins 

Storyline:
American Anna Vorontosov teaches in a rural school on New Zealand's North Island. 
Her class of younger students is comprised largely of Maoris. She feels that western 
methods are not the most appropriate in teaching her students, for who concepts such
as "see Jane run" have no cultural context. To make her classes seem more organized 
to Abercrombie, Anna enlists the help of one of the older students...

Notes: TCM logo and No subs....

Source: WebDL
Format                                   : AVI
Format/Info                              : Audio Video Interleave
File size                                : 1.37 GiB
Duration                                 : 1h 47mn
Overall bit rate                         : 1 814 Kbps
Writing application                      : VirtualDubMod 1.5.4.1 (build 2178/release)
Writing library                          : VirtualDubMod build 2178/release

Video
ID                                       : 0
Format                                   : MPEG-4 Visual
Format profile                           : Advanced [email protected]
Format settings, BVOP                    : 1
Format settings, QPel                    : No
Format settings, GMC                     : No warppoints
Format settings, Matrix                  : Custom
Codec ID                                 : XVID
Codec ID/Hint                            : XviD
Duration                                 : 1h 47mn
Bit rate                                 : 1 551 Kbps
Width                                    : 592 pixels
Height                                   : 448 pixels
Display aspect ratio                     : 4:3
Frame rate                               : 25.000 fps
Color space                              : YUV
Chroma subsampling                       : 4:2:0
Bit depth                                : 8 bits
Scan type                                : Progressive
Compression mode                         : Lossy
Bits/(Pixel*Frame)                       : 0.234
Stream size                              : 1.17 GiB (86%)
Writing library                          : XviD 1.2.0.dev47 (UTC 2006-11-01)

Audio
ID                                       : 1
Format                                   : AC-3
Format/Info                              : Audio Coding 3
Mode extension                           : CM (complete main)
Format settings, Endianness              : Big
Codec ID                                 : 2000
Duration                                 : 1h 47mn
Bit rate mode                            : Constant
Bit rate                                 : 256 Kbps
Channel(s)                               : 2 channels
Channel positions                        : Front: L R
Sampling rate                            : 48.0 KHz
Bit depth                                : 16 bits
Compression mode                         : Lossy
Delay relative to video                  : 64ms
Stream size                              : 198 MiB (14%)
Alignment                                : Split accross interleaves
Interleave, duration                     : 96 ms (2.40 video frames)
Interleave, preload duration             : 96 ms