Login or Register

NFO File

For The Secret Life of Walter Mitty (2013) Icelandic Adventure (BD AVC 1080p AC3) [4429B585]

General
Unique ID                                : 242516549592695770771122108342864866937 (0xB672FD0D7BFCCD4BA2A5B7B8A6FE6E79)
Complete name                            : The Secret Life of Walter Mitty (2013) Icelandic Adventure (BD AVC 1080p AC3) [4429B585].mkv
Format                                   : Matroska
Format version                           : Version 4 / Version 2
File size                                : 500 MiB
Duration                                 : 3mn 26s
Overall bit rate mode                    : Variable
Overall bit rate                         : 20.3 Mbps
Encoded date                             : UTC 2016-02-21 18:09:05
Writing application                      : mkvmerge v8.8.0 ('Wind at my back') 64bit
Writing library                          : libebml v1.3.3 + libmatroska v1.4.4
Cover                                    : Yes
Attachments                              : cover.jpg

Video
ID                                       : 1
Format                                   : AVC
Format/Info                              : Advanced Video Codec
Format profile                           : [email protected]
Format settings, CABAC                   : Yes
Format settings, ReFrames                : 4 frames
Codec ID                                 : V_MPEG4/ISO/AVC
Duration                                 : 3mn 26s
Bit rate mode                            : Variable
Bit rate                                 : 19.8 Mbps
Maximum bit rate                         : 37.0 Mbps
Width                                    : 1 920 pixels
Height                                   : 1 080 pixels
Display aspect ratio                     : 16:9
Frame rate mode                          : Constant
Frame rate                               : 23.976 (24000/1001) fps
Color space                              : YUV
Chroma subsampling                       : 4:2:0
Bit depth                                : 8 bits
Scan type                                : Progressive
Bits/(Pixel*Frame)                       : 0.399
Stream size                              : 489 MiB (98%)
Language                                 : English
Default                                  : No
Forced                                   : No

Audio
ID                                       : 2
Format                                   : AC-3
Format/Info                              : Audio Coding 3
Mode extension                           : CM (complete main)
Format settings, Endianness              : Big
Codec ID                                 : A_AC3
Duration                                 : 3mn 26s
Bit rate mode                            : Constant
Bit rate                                 : 224 Kbps
Channel(s)                               : 2 channels
Channel positions                        : Front: L R
Sampling rate                            : 48.0 KHz
Frame rate                               : 31.250 fps (1536 spf)
Compression mode                         : Lossy
Stream size                              : 5.52 MiB (1%)
Language                                 : English
Default                                  : Yes
Forced                                   : No

Text #1
ID                                       : 3
Format                                   : PGS
Muxing mode                              : zlib
Codec ID                                 : S_HDMV/PGS
Codec ID/Info                            : Picture based subtitle format used on BDs/HD-DVDs
Duration                                 : 3mn 18s
Bit rate                                 : 20.8 Kbps
Count of elements                        : 130
Stream size                              : 505 KiB (0%)
Language                                 : English
Default                                  : No
Forced                                   : No

Text #2
ID                                       : 4
Format                                   : PGS
Muxing mode                              : zlib
Codec ID                                 : S_HDMV/PGS
Codec ID/Info                            : Picture based subtitle format used on BDs/HD-DVDs
Duration                                 : 3mn 22s
Bit rate                                 : 19.1 Kbps
Count of elements                        : 140
Stream size                              : 473 KiB (0%)
Language                                 : Spanish
Default                                  : No
Forced                                   : No

Text #3
ID                                       : 5
Format                                   : PGS
Muxing mode                              : zlib
Codec ID                                 : S_HDMV/PGS
Codec ID/Info                            : Picture based subtitle format used on BDs/HD-DVDs
Duration                                 : 3mn 22s
Bit rate                                 : 18.9 Kbps
Count of elements                        : 140
Stream size                              : 466 KiB (0%)
Language                                 : Portuguese
Default                                  : No
Forced                                   : No

Text #4
ID                                       : 6
Format                                   : PGS
Muxing mode                              : zlib
Codec ID                                 : S_HDMV/PGS
Codec ID/Info                            : Picture based subtitle format used on BDs/HD-DVDs
Duration                                 : 3mn 22s
Bit rate                                 : 21.0 Kbps
Count of elements                        : 138
Stream size                              : 520 KiB (0%)
Language                                 : Russian
Default                                  : No
Forced                                   : No

Text #5
ID                                       : 7
Format                                   : PGS
Muxing mode                              : zlib
Codec ID                                 : S_HDMV/PGS
Codec ID/Info                            : Picture based subtitle format used on BDs/HD-DVDs
Duration                                 : 3mn 22s
Bit rate                                 : 18.2 Kbps
Count of elements                        : 138
Stream size                              : 449 KiB (0%)
Language                                 : Czech
Default                                  : No
Forced                                   : No

Text #6
ID                                       : 8
Format                                   : PGS
Muxing mode                              : zlib
Codec ID                                 : S_HDMV/PGS
Codec ID/Info                            : Picture based subtitle format used on BDs/HD-DVDs
Duration                                 : 3mn 22s
Bit rate                                 : 21.1 Kbps
Count of elements                        : 140
Stream size                              : 523 KiB (0%)
Language                                 : Greek
Default                                  : No
Forced                                   : No

Text #7
ID                                       : 9
Format                                   : PGS
Muxing mode                              : zlib
Codec ID                                 : S_HDMV/PGS
Codec ID/Info                            : Picture based subtitle format used on BDs/HD-DVDs
Duration                                 : 3mn 22s
Bit rate                                 : 18.6 Kbps
Count of elements                        : 134
Stream size                              : 460 KiB (0%)
Language                                 : Hungarian
Default                                  : No
Forced                                   : No

Text #8
ID                                       : 10
Format                                   : PGS
Muxing mode                              : zlib
Codec ID                                 : S_HDMV/PGS
Codec ID/Info                            : Picture based subtitle format used on BDs/HD-DVDs
Duration                                 : 3mn 22s
Bit rate                                 : 24.6 Kbps
Count of elements                        : 140
Stream size                              : 607 KiB (0%)
Language                                 : Chinese
Default                                  : No
Forced                                   : No

Text #9
ID                                       : 11
Format                                   : PGS
Muxing mode                              : zlib
Codec ID                                 : S_HDMV/PGS
Codec ID/Info                            : Picture based subtitle format used on BDs/HD-DVDs
Duration                                 : 3mn 22s
Bit rate                                 : 20.0 Kbps
Count of elements                        : 138
Stream size                              : 493 KiB (0%)
Language                                 : Polish
Default                                  : No
Forced                                   : No

Text #10
ID                                       : 12
Format                                   : PGS
Muxing mode                              : zlib
Codec ID                                 : S_HDMV/PGS
Codec ID/Info                            : Picture based subtitle format used on BDs/HD-DVDs
Duration                                 : 3mn 22s
Bit rate                                 : 19.0 Kbps
Count of elements                        : 138
Stream size                              : 470 KiB (0%)
Language                                 : Portuguese
Default                                  : No
Forced                                   : No