Login or Register

NFO File

For Sins.of.Our.Youth.2016.1080p.AMZN.WEB-DL

General
Unique ID                                : 175655016908870772700628288863954514692 (0x8425ECFA535428D9B6678E17AE47B304)
Complete name                            : Sins.of.Our.Youth.2016.1080p.AMZN.WEB-DL.DD+5.1.H.264-monkee.mkv
Format                                   : Matroska
Format version                           : Version 4 / Version 2
File size                                : 3.76 GiB
Duration                                 : 1h 31mn
Overall bit rate mode                    : Variable
Overall bit rate                         : 5 864 Kbps
Encoded date                             : UTC 2017-09-13 05:17:13
Writing application                      : mkvmerge v15.0.0 ('Duel with the Devil') 32-bit
Writing library                          : libebml v1.3.5 + libmatroska v1.4.5
DURATION                                 : 01:27:15.209000000
NUMBER_OF_FRAMES                         : 1425
NUMBER_OF_BYTES                          : 35997
_STATISTICS_WRITING_APP                  : mkvmerge v15.0.0 ('Duel with the Devil') 32-bit
_STATISTICS_WRITING_DATE_UTC             : 2017-09-13 05:17:13
_STATISTICS_TAGS                         : BPS DURATION NUMBER_OF_FRAMES NUMBER_OF_BYTES

Video
ID                                       : 1
Format                                   : AVC
Format/Info                              : Advanced Video Codec
Format profile                           : [email protected]
Format settings, CABAC                   : Yes
Format settings, ReFrames                : 4 frames
Codec ID                                 : V_MPEG4/ISO/AVC
Duration                                 : 1h 31mn
Bit rate mode                            : Variable
Bit rate                                 : 5 107 Kbps
Maximum bit rate                         : 15.0 Mbps
Width                                    : 1 920 pixels
Height                                   : 816 pixels
Display aspect ratio                     : 2.35:1
Frame rate mode                          : Constant
Frame rate                               : 23.976 fps
Color space                              : YUV
Chroma subsampling                       : 4:2:0
Bit depth                                : 8 bits
Scan type                                : Progressive
Bits/(Pixel*Frame)                       : 0.136
Stream size                              : 3.28 GiB (87%)
Default                                  : Yes
Forced                                   : No
Color primaries                          : BT.709
Transfer characteristics                 : BT.709
Matrix coefficients                      : BT.709

Audio
ID                                       : 2
Format                                   : E-AC-3
Format/Info                              : Audio Coding 3
Format settings, Endianness              : Big
Codec ID                                 : A_EAC3
Duration                                 : 1h 31mn
Bit rate mode                            : Constant
Bit rate                                 : 640 Kbps
Channel(s)                               : 6 channels
Channel positions                        : Front: L C R, Side: L R, LFE
Sampling rate                            : 48.0 KHz
Compression mode                         : Lossy
Stream size                              : 420 MiB (11%)
Language                                 : English
Default                                  : Yes
Forced                                   : No

Text
ID                                       : 3
Format                                   : UTF-8
Codec ID                                 : S_TEXT/UTF8
Codec ID/Info                            : UTF-8 Plain Text
Language                                 : English
Default                                  : No
Forced                                   : No